2

[MOVIE] 1984 [1984][1080p][x264][1.64GB] links.snahp.it

Submitted by jodorowsthesky in Zippyshare

zippyshare
password : megalinks
IMDb

    Format                                   : MPEG-4
    Format profile                           : Base Media
    Codec ID                                 : isom (isom/avc1)
    File size                                : 1.65 GiB
    Duration                                 : 1 h 50 min
    Overall bit rate mode                    : Variable
    Overall bit rate                         : 2 131 kb/s
    Encoded date                             : UTC 2015-04-03 21:02:51
    Tagged date                              : UTC 2015-04-03 21:02:51
    
    Video
    ID                                       : 1
    Format                                   : AVC
    Format/Info                              : Advanced Video Codec
    Format profile                           : High@L4.1
    Format settings, CABAC                   : Yes
    Format settings, ReFrames                : 4 frames
    Codec ID                                 : avc1
    Codec ID/Info                            : Advanced Video Coding
    Duration                                 : 1 h 50 min
    Bit rate                                 : 2 034 kb/s
    Maximum bit rate                         : 9 942 kb/s
    Width                                    : 1 920 pixels
    Height                                   : 1 040 pixels
    Display aspect ratio                     : 1.85:1
    Frame rate mode                          : Constant
    Frame rate                               : 23.976 (24000/1001) FPS
    Original frame rate                      : 23.976 (23976/1000) FPS
    Color space                              : YUV
    Chroma subsampling                       : 4:2:0
    Bit depth                                : 8 bits
    Scan type                                : Progressive
    Bits/(Pixel*Frame)                       : 0.042
    Stream size                              : 1.57 GiB (95%)
    Writing library                          : x264 core 123 r2189 35cf912
    Encoding settings                        : cabac=1 / ref=4 / deblock=1:-1:-1 / analyse=0x3:0x133 / me=umh / subme=9 / psy=1 / psy_rd=1.00:0.15 / mixed_ref=1 / me_range=24 / chroma_me=1 / trellis=2 / 8x8dct=1 / cqm=0 / deadzone=21,11 / fast_pskip=0 / chroma_qp_offset=-3 / threads=48 / sliced_threads=0 / nr=0 / decimate=1 / interlaced=0 / bluray_compat=0 / constrained_intra=0 / bframes=3 / b_pyramid=2 / b_adapt=2 / b_bias=0 / direct=3 / weightb=1 / open_gop=0 / weightp=2 / keyint=250 / keyint_min=23 / scenecut=40 / intra_refresh=0 / rc_lookahead=60 / rc=2pass / mbtree=1 / bitrate=2034 / ratetol=1.0 / qcomp=0.60 / qpmin=0 / qpmax=69 / qpstep=4 / cplxblur=20.0 / qblur=0.5 / vbv_maxrate=31250 / vbv_bufsize=31250 / nal_hrd=none / ip_ratio=1.40 / aq=1:1.00
    Encoded date                             : UTC 2015-04-03 21:02:51
    Tagged date                              : UTC 2015-04-03 21:03:01
    Color range                              : Limited
    Color primaries                          : BT.709
    Matrix coefficients                      : BT.709
    
    Audio
    ID                                       : 2
    Format                                   : AAC
    Format/Info                              : Advanced Audio Codec
    Format profile                           : LC
    Codec ID                                 : 40
    Duration                                 : 1 h 50 min
    Bit rate mode                            : Variable
    Bit rate                                 : 94.0 kb/s
    Maximum bit rate                         : 98.8 kb/s
    Channel(s)                               : 2 channels
    Channel positions                        : Front: L R
    Sampling rate                            : 48.0 kHz
    Frame rate                               : 46.875 FPS (1024 spf)
    Compression mode                         : Lossy
    Stream size                              : 74.3 MiB (4%)
    Language                                 : English
    Encoded date                             : UTC 2015-04-03 21:03:00
    Tagged date                              : UTC 2015-04-03 21:03:01  

Comments

You must log in or register to comment.